Star Trek 2160p 4K UltraHD BluRay (x265 HEVC 10bit) 2CH AC3 [Zeus]

star trek native 4k

NATIVE 4K RELEASE

star trek 4k

Star Trek 2160p 4K UltraHD BluRay(x265 HEVC 10bit) 2CH AC3 [Zeus]

(Size: 54.09 GB)

 

~Zeus Presents~

Star Trek (2009)

Hello Movie lovers of all ages!! Today, I am here to give you Star Trek in glorious 2160p Ultra High Definition!! Please leave some love by up voting and leaving a comment or suggestion for future uploads 🙂


MOVIE SUMMARY:

Aboard the USS Enterprise, the most-sophisticated starship ever built, a novice crew embarks on its maiden voyage. Their path takes them on a collision course with Nero (Eric Bana), a Romulan commander whose mission of vengeance threatens all mankind. If humanity would survive, a rebellious young officer named James T. Kirk (Chris Pine) and a coolly logical Vulcan named Spock (Zachary Quinto) must move beyond their rivalry and find a way to defeat Nero before it is too late.

MOVIE SPECS:

Format : Matroska
Format version : Version 2
File size : 54.1 GiB
Duration : 2h 6mn
Overall bit rate : 61.1 Mbps
Encoded date : UTC 2016-07-14T11:13:27Z
Writing application : HandBrake 20160604111422-9206444-master 2016060501
Writing library : Lavf56.1.0 / Lavf56.1.0

Video
ID : 1
Format : HEVC
Format/Info : High Efficiency Video Coding
Format profile : Main [email protected]@Main
Codec ID : V_MPEGH/ISO/HEVC
Duration : 2h 6mn
Bit rate : 59.4 Mbps
Width : 3 840 pixels
Height : 2 160 pixels
Display aspect ratio : 16:9
Frame rate mode : Constant
Frame rate : 23.976 (24000/1001) fps
Color space : YUV
Chroma subsampling : 4:2:0
Bit depth : 10 bits
Bits/(Pixel*Frame) : 0.299
Stream size : 52.6 GiB (97%)
Writing library : x265 1.9+3-63308f7658c3:[Windows][GCC 5.2.0][64 bit] 10bit
Encoding settings : wpp / ctu=64 / min-cu-size=8 / max-tu-size=32 / tu-intra-depth=1 / tu-inter-depth=1 / me=1 / subme=2 / merange=57 / no-rect / no-amp / max-merge=2 / temporal-mvp / no-early-skip / rdpenalty=0 / no-tskip / no-tskip-fast / strong-intra-smoothing / no-lossless / no-cu-lossless / no-constrained-intra / no-fast-intra / open-gop / no-temporal-layers / interlace=0 / keyint=240 / min-keyint=24 / scenecut=40 / rc-lookahead=20 / lookahead-slices=8 / bframes=4 / bframe-bias=0 / b-adapt=2 / ref=3 / limit-refs=3 / no-limit-modes / weightp / no-weightb / aq-mode=1 / qg-size=32 / aq-strength=1.00 / cbqpoffs=0 / crqpoffs=0 / rd=3 / psy-rd=2.00 / rdoq-level=0 / psy-rdoq=0.00 / signhide / deblock / sao / no-sao-non-deblock / b-pyramid / cutree / no-intra-refresh / rc=abr / bitrate=61000 / qcomp=0.60 / qpmin=0 / qpmax=51 / qpstep=4 / ipratio=1.40 / pbratio=1.30
Default : Yes
Forced : No
Color range : Limited
Color primaries : BT.709
Transfer characteristics : BT.709
Matrix coefficients : BT.601

Audio
ID : 2
Format : AC-3
Format/Info : Audio Coding 3
Mode extension : CM (complete main)
Format settings, Endianness : Big
Codec ID : A_AC3
Duration : 2h 6mn
Bit rate mode : Constant
Bit rate : 512 Kbps
Channel(s) : 2 channels
Channel positions : Front: L R
Sampling rate : 48.0 KHz
Frame rate : 31.250 fps (1536 spf)
Compression mode : Lossy
Delay relative to video : -5ms
Stream size : 464 MiB (1%)
Title : Stereo
Default : Yes
Forced : No

d1

MAIN DOWNLOAD

life of pi hdr download

DOWNLOAD FOR GUESTS NEEDS SPONSOR OFFER COMPLETION. IF YOU CAN’T GET TO COMPLETE FOR EITHER NON SUPPORT ON YOUR COUNTRY OR YOU JUST CAN’T DO ANY OFFER GO HERE:

UNLOCK DOWNLOADS BY AMAZON GIFT CARDS – PSN CODES – SKRILL MONEYBOOKERS AND PERFECT MONEY DONATION

d1

Bitcasino.io

 

Leave a comment

Your email address will not be published. Required fields are marked *