The Revenant 2160p 4K UltraHD BluRay HEVC x265 10bit DTS-HD MA 7.1 [Zeus]

the revenant 4k uhd

NATIVE 4K RELEASE

the revenant 4k rip

The Revenant 2160p 4K UltraHD BluRay (HEVC x265 10bit) DTS-HD MA 7.1 [Zeus]

Size : 38.58 GB

~Zeus Presents~

The Revenant (2009)

 

This is Zeus UHD Bluray capture of “The Revenant” with retail bluray DTS-HD 8 channel English audio added to it by myself for a very high quality copy of this film.

All credit goes out to Zeus as hes the guy who is taking the time and had the gear to capture these “one of a kind” rips

No Audio issues, 100% verified

d1

MOVIE SPECS:

Video
ID : 1
Format : HEVC
Format/Info : High Efficiency Video Coding
Format profile : Main [email protected]@Main
Codec ID : V_MPEGH/ISO/HEVC
Duration : 2h 36mn
Bit rate : 30.6 Mbps
Width : 3 840 pixels
Height : 1 608 pixels
Display aspect ratio : 2.40:1
Frame rate mode : Constant
Frame rate : 23.976 (24000/1001) fps
Color space : YUV
Chroma subsampling : 4:2:0
Bit depth : 10 bits
Bits/(Pixel*Frame) : 0.206
Stream size : 33.4 GiB (87%)
Writing library : x265 1.9+3-63308f7658c3:[Windows][GCC 5.2.0][64 bit] 10bit
Encoding settings : wpp / ctu=64 / min-cu-size=8 / max-tu-size=32 / tu-intra-depth=1 / tu-inter-depth=1 / me=1 / subme=2 / merange=57 / no-rect / no-amp / max-merge=2 / temporal-mvp / no-early-skip / rdpenalty=0 / no-tskip / no-tskip-fast / strong-intra-smoothing / no-lossless / no-cu-lossless / no-constrained-intra / no-fast-intra / open-gop / no-temporal-layers / interlace=0 / keyint=240 / min-keyint=24 / scenecut=40 / rc-lookahead=20 / lookahead-slices=8 / bframes=4 / bframe-bias=0 / b-adapt=2 / ref=3 / limit-refs=3 / no-limit-modes / weightp / no-weightb / aq-mode=1 / qg-size=32 / aq-strength=1.00 / cbqpoffs=0 / crqpoffs=0 / rd=3 / psy-rd=2.00 / rdoq-level=0 / psy-rdoq=0.00 / signhide / deblock / sao / no-sao-non-deblock / b-pyramid / cutree / no-intra-refresh / rc=abr / bitrate=31000 / qcomp=0.60 / qpmin=0 / qpmax=51 / qpstep=4 / ipratio=1.40 / pbratio=1.30
Default : Yes
Forced : No
Color range : Limited
Color primaries : BT.709
Transfer characteristics : BT.709
Matrix coefficients : BT.601

Audio #1
ID : 2
Format : AAC
Format/Info : Advanced Audio Codec
Format profile : LC
Codec ID : A_AAC
Duration : 2h 36mn
Bit rate : 160 Kbps
Channel(s) : 2 channels
Channel positions : Front: L R
Sampling rate : 48.0 KHz
Frame rate : 46.875 fps (1024 spf)
Compression mode : Lossy
Delay relative to video : -21ms
Stream size : 179 MiB (0%)
Title : Stereo
Default : No
Forced : No

Audio #2
ID : 3
Format : DTS
Format/Info : Digital Theater Systems
Format profile : MA / Core
Mode : 16
Format settings, Endianness : Big
Codec ID : A_DTS
Duration : 2h 36mn
Bit rate mode : Variable / Constant
Bit rate : 4 603 Kbps / 1 509 Kbps
Channel(s) : 8 channels / 6 channels
Channel positions : Front: L C R, Side: L R, Back: L R, LFE / Front: L C R, Side: L R, LFE
Sampling rate : 48.0 KHz
Frame rate : 93.750 fps (512 spf)
Bit depth : 24 bits
Compression mode : Lossless / Lossy
Delay relative to video : -11ms
Stream size : 5.03 GiB (13%)
Title : DTS-HD
Default : Yes
Forced : No

 

d1

MAIN DOWNLOAD

life of pi hdr download

MIRRORS

MIRROR 1

AdWork Media Checkout

DOWNLOAD FOR GUESTS NEEDS SPONSOR OFFER COMPLETION. IF YOU CAN’T GET TO COMPLETE FOR EITHER NON SUPPORT ON YOUR COUNTRY OR YOU JUST CAN’T DO ANY OFFER GO HERE:

UNLOCK DOWNLOADS BY AMAZON GIFT CARDS – PSN CODES – SKRILL MONEYBOOKERS AND PERFECT MONEY DONATION

d1

Bitcasino.io

 

Leave a comment

Your email address will not be published. Required fields are marked *