Batman v Superman Dawn of Justice 2016 EXTENDED 1080p BluRay REMUX DTS-HD

batman v superman ultimate edition remux download

1080p Blu-Ray REMUX RELEASE

batman v superman remux download

Batman v Superman Dawn of Justice 2016 EXTENDED 1080p BluRay REMUX AVC DTS-HD MA TrueHD 7 1 Atmos-RARBG

 

SIZE: 44.5 GB

RARBG PRESENTS

Batman v Superman: Dawn of Justice Ultimate Edition Blu-ray REMUX
The extended cut of “Batman v Superman: Dawn of Justice” includes 30 more minutes of story and action not seen in theaters! Also includes the Theatrical Version of the film plus over 2 hours of bonus content. From director Zack Snyder comes “Batman v Superman: Dawn of Justice,” starring Ben Affleck as Batman/Bruce Wayne and Henry Cavill as Superman/Clark Kent in the characters’ first big-screen pairing. Fearing the actions of a god-like Super Hero left unchecked, Gotham City’s own formidable, forceful vigilante takes on Metropolis’s most revered, modern-day savior, while the world wrestles with what sort of hero it really needs. And with Batman and Superman at war with one another, a new threat quickly arises, putting mankind in greater danger than it’s ever known before.

 

MOVIE SPECS:

Video
ID : 1
Format : AVC
Format/Info : Advanced Video Codec
Format profile : [email protected]
Format settings, CABAC : Yes
Format settings, ReFrames : 2 frames
Format settings, GOP : M=1, N=10
Codec ID : V_MPEG4/ISO/AVC
Duration : 3h 2mn
Bit rate mode : Variable
Width : 1 920 pixels
Height : 1 080 pixels
Display aspect ratio : 16:9
Frame rate mode : Constant
Frame rate : 23.976 (24000/1001) fps
Color space : YUV
Chroma subsampling : 4:2:0
Bit depth : 8 bits
Scan type : Progressive
Title : Batman.v.Superman.Dawn.of.Justice.2016.EXTENDED.1080p.BluRay.REMUX.AVC.DTS-HD.MA.TrueHD.7.1.Atmos-RARBG
Language : English
Default : No
Forced : No

Audio #1
ID : 2
Format : DTS
Format/Info : Digital Theater Systems
Format profile : MA / Core
Mode : 16
Format settings, Endianness : Big
Codec ID : A_DTS
Duration : 3h 2mn
Bit rate mode : Variable / Constant
Bit rate : Unknown / 1 509 Kbps
Channel(s) : 8 channels / 6 channels
Channel positions : Front: L C R, Side: L R, Back: L R, LFE / Front: L C R, Side: L R, LFE
Sampling rate : 48.0 KHz
Frame rate : 93.750 fps (512 spf)
Bit depth : 24 bits
Compression mode : Lossless / Lossy
Title : Batman.v.Superman.Dawn.of.Justice.2016.EXTENDED.1080p.BluRay.REMUX.AVC.DTS-HD.MA.TrueHD.7.1.Atmos-RARBG
Language : English
Default : Yes
Forced : No

Audio #2
ID : 3
Format : Atmos / TrueHD
Codec ID : A_TRUEHD
Bit rate mode : Variable
Maximum bit rate : 8 199 Kbps
Channel(s) : Object Based / 8 channels
Channel positions : Object Based / Front: L C R, Side: L R, Back: L R, LFE
Sampling rate : / 48.0 KHz
Frame rate : 1 200.000 fps (40 spf)
Compression mode : Lossless
Title : Batman.v.Superman.Dawn.of.Justice.2016.EXTENDED.1080p.BluRay.REMUX.AVC.DTS-HD.MA.TrueHD.7.1.Atmos-RARBG
Language : English
Default : No
Forced : No

Audio #3
ID : 4
Format : AC-3
Format/Info : Audio Coding 3
Mode extension : CM (complete main)
Format settings, Endianness : Big
Codec ID : A_AC3
Duration : 3h 2mn
Bit rate mode : Constant
Bit rate : 448 Kbps
Channel(s) : 6 channels
Channel positions : Front: L C R, Side: L R, LFE
Sampling rate : 48.0 KHz
Frame rate : 31.250 fps (1536 spf)
Compression mode : Lossy
Stream size : 585 MiB (1%)
Title : Batman.v.Superman.Dawn.of.Justice.2016.EXTENDED.1080p.BluRay.REMUX.AVC.DTS-HD.MA.TrueHD.7.1.Atmos-RARBG
Language : English
Default : No
Forced : No

Audio #4
ID : 5
Format : AC-3
Format/Info : Audio Coding 3
Mode extension : CM (complete main)
Format settings, Endianness : Big
Codec ID : A_AC3
Duration : 3h 2mn
Bit rate mode : Constant
Bit rate : 448 Kbps
Channel(s) : 6 channels
Channel positions : Front: L C R, Side: L R, LFE
Sampling rate : 48.0 KHz
Frame rate : 31.250 fps (1536 spf)
Compression mode : Lossy
Stream size : 585 MiB (1%)
Title : Batman.v.Superman.Dawn.of.Justice.2016.EXTENDED.1080p.BluRay.REMUX.AVC.DTS-HD.MA.TrueHD.7.1.Atmos-RARBG
Language : English
Default : No
Forced : No

Audio #5
ID : 6
Format : AC-3
Format/Info : Audio Coding 3
Mode extension : CM (complete main)
Format settings, Endianness : Big
Codec ID : A_AC3
Duration : 3h 2mn
Bit rate mode : Constant
Bit rate : 448 Kbps
Channel(s) : 6 channels
Channel positions : Front: L C R, Side: L R, LFE
Sampling rate : 48.0 KHz
Frame rate : 31.250 fps (1536 spf)
Compression mode : Lossy
Stream size : 585 MiB (1%)
Title : Batman.v.Superman.Dawn.of.Justice.2016.EXTENDED.1080p.BluRay.REMUX.AVC.DTS-HD.MA.TrueHD.7.1.Atmos-RARBG
Language : French
Default : No
Forced : No

Audio #6
ID : 7
Format : AC-3
Format/Info : Audio Coding 3
Mode extension : CM (complete main)
Format settings, Endianness : Big
Codec ID : A_AC3
Duration : 3h 2mn
Bit rate mode : Constant
Bit rate : 448 Kbps
Channel(s) : 6 channels
Channel positions : Front: L C R, Side: L R, LFE
Sampling rate : 48.0 KHz
Frame rate : 31.250 fps (1536 spf)
Compression mode : Lossy
Stream size : 585 MiB (1%)
Title : Batman.v.Superman.Dawn.of.Justice.2016.EXTENDED.1080p.BluRay.REMUX.AVC.DTS-HD.MA.TrueHD.7.1.Atmos-RARBG
Language : Portuguese
Default : No
Forced : No

Text #1
ID : 8
Format : PGS
Muxing mode : zlib
Codec ID : S_HDMV/PGS
Codec ID/Info : Picture based subtitle format used on BDs/HD-DVDs
Title : English-PGS
Language : English
Default : No
Forced : No

Text #2
ID : 9
Format : PGS
Muxing mode : zlib
Codec ID : S_HDMV/PGS
Codec ID/Info : Picture based subtitle format used on BDs/HD-DVDs
Title : French-PGS
Language : French
Default : No
Forced : No

Text #3
ID : 10
Format : PGS
Muxing mode : zlib
Codec ID : S_HDMV/PGS
Codec ID/Info : Picture based subtitle format used on BDs/HD-DVDs
Title : Chinese-PGS
Language : Chinese
Default : No
Forced : No

Text #4
ID : 11
Format : PGS
Muxing mode : zlib
Codec ID : S_HDMV/PGS
Codec ID/Info : Picture based subtitle format used on BDs/HD-DVDs
Title : Chinese-PGS
Language : Chinese
Default : No
Forced : No

Text #5
ID : 12
Format : PGS
Muxing mode : zlib
Codec ID : S_HDMV/PGS
Codec ID/Info : Picture based subtitle format used on BDs/HD-DVDs
Title : Chinese-PGS
Language : Chinese
Default : No
Forced : No

Text #6
ID : 13
Format : PGS
Muxing mode : zlib
Codec ID : S_HDMV/PGS
Codec ID/Info : Picture based subtitle format used on BDs/HD-DVDs
Title : Spanish-PGS
Language : Spanish
Default : No
Forced : No

Text #7
ID : 14
Format : PGS
Muxing mode : zlib
Codec ID : S_HDMV/PGS
Codec ID/Info : Picture based subtitle format used on BDs/HD-DVDs
Title : Portuguese-PGS
Language : Portuguese
Default : No
Forced : No

Text #8
ID : 15
Format : PGS
Muxing mode : zlib
Codec ID : S_HDMV/PGS
Codec ID/Info : Picture based subtitle format used on BDs/HD-DVDs
Title : Thai-PGS
Language : Thai
Default : No
Forced : No

Text #9
ID : 16
Format : PGS
Muxing mode : zlib
Codec ID : S_HDMV/PGS
Codec ID/Info : Picture based subtitle format used on BDs/HD-DVDs
Title : French-FORCED-PGS
Language : French
Default : No
Forced : No

Text #10
ID : 17
Format : PGS
Muxing mode : zlib
Codec ID : S_HDMV/PGS
Codec ID/Info : Picture based subtitle format used on BDs/HD-DVDs
Title : Portuguese-FORCED-PGS
Language : Portuguese
Default : No
Forced : No

Menu
00:00:00.000 : en:Chapter 01
00:10:10.651 : en:Chapter 02
00:27:00.619 : en:Chapter 03
00:37:49.183 : en:Chapter 04
00:46:54.269 : en:Chapter 05
01:02:04.929 : en:Chapter 06
01:14:10.571 : en:Chapter 07
01:28:06.906 : en:Chapter 08
01:41:46.350 : en:Chapter 09
01:53:52.450 : en:Chapter 10
02:02:58.037 : en:Chapter 11
02:15:03.804 : en:Chapter 12
02:27:54.866 : en:Chapter 13
02:36:51.151 : en:Chapter 14
02:48:27.347 : en:Chapter 15
02:54:43.639 : en:Chapter 16

 

d1

MAIN DOWNLOAD

life of pi hdr download

DOWNLOAD FOR GUESTS NEEDS SPONSOR OFFER COMPLETION. IF YOU CAN’T GET TO COMPLETE FOR EITHER NON SUPPORT ON YOUR COUNTRY OR YOU JUST CAN’T DO ANY OFFER GO HERE:

UNLOCK DOWNLOADS BY AMAZON GIFT CARDS – PSN CODES – SKRILL MONEYBOOKERS AND PERFECT MONEY DONATION

d1

Bitcasino.io

 

Leave a comment

Your email address will not be published. Required fields are marked *