Star Wars Episode I The Phantom Menace 4K UltraHD BluRay MULTI X264 4

the phantom menace 4k 2160p

H.264 4K RELEASE

the 5th wave 4k hevc

the phantom menace 4k 2160p

 

Star Wars Episode I The Phantom Menace 4K UltraHD BluRay MULTI

Size: 44.75 GB

Star Wars Episode I The Phantom Menace

(1999)


MOVIE SUMMARY:

Obi-Wan Kenobi (Ewan McGregor) is a young apprentice Jedi knight under the tutelage of Qui-Gon Jinn (Liam Neeson) ; Anakin Skywalker (Jake Lloyd), who will later father Luke Skywalker and become known as Darth Vader, is just a 9-year-old boy. When the Trade Federation cuts off all routes to the planet Naboo, Qui-Gon and Obi-Wan are assigned to settle the matter.

UHD 4K 2160p / Blu-ray 4K Rip / x264
English DTS-HDMA 6.1
French DTS 5.1
Hindi AC3

English / French / Spanish / Portuguese
/ Dutch / Finnish / Norvegian/ Swedish

+ Foreign & SDH Subs

MOVIE SPECS:

Format : Matroska
Format version : Version 4 / Version 2
File size : 44.4 GiB
Duration : 2 h 16 min
Overall bit rate : 46.7 Mb/s
Movie name : Star Wars Episode I – The phantom Menace UHD 4K Blu-Ray
Encoded date : UTC 2016-09-15 10:10:40

Video
ID : 1
Format : AVC
Format/Info : Advanced Video Codec
Format profile : [email protected]
Format settings, CABAC : Yes
Format settings, ReFrames : 1 frame
Codec ID : V_MPEG4/ISO/AVC
Duration : 2 h 16 min
Bit rate : 40.0 Mb/s
Width : 3 840 pixels
Height : 2 160 pixels
Display aspect ratio : 16:9
Frame rate mode : Constant
Frame rate : 23.976 (24000/1001) FPS
Color space : YUV
Chroma subsampling : 4:2:0
Bit depth : 8 bits
Scan type : Progressive
Bits/(Pixel*Frame) : 0.201
Stream size : 38.0 GiB (86%)
Language : English
Default : Yes
Forced : No
Color range : Limited
Color primaries : BT.709
Transfer characteristics : BT.709
Matrix coefficients : BT.709

Audio #2
ID : 3
Format : DTS
Format/Info : Digital Theater Systems
Mode : 16
Format settings, Endianness : Big
Codec ID : A_DTS
Duration : 2 h 16 min
Bit rate mode : Constant
Bit rate : 768 kb/s
Channel(s) : 6 channels
Channel positions : Front: L C R, Side: L R, LFE
Sampling rate : 48.0 kHz
Frame rate : 93.750 FPS (512 spf)
Bit depth : 24 bits
Compression mode : Lossy
Stream size : 748 MiB (2%)
Language : French
Default : No
Forced : No

Audio #3
ID : 4
Format : AC-3
Format/Info : Audio Coding 3
Mode extension : CM (complete main)
Format settings, Endianness : Big
Codec ID : A_AC3
Duration : 2 h 16 min
Bit rate mode : Constant
Bit rate : 192 kb/s
Channel(s) : 2 channels
Channel positions : Front: L R
Sampling rate : 48.0 kHz
Frame rate : 31.250 FPS (1536 spf)
Compression mode : Lossy
Stream size : 187 MiB (0%)
Language : Hindi
Default : Yes
Forced : No

Chapters = YES & Named
Sample : Included

d1

MAIN DOWNLOAD

life of pi hdr download

DOWNLOAD FOR GUESTS NEEDS SPONSOR OFFER COMPLETION. IF YOU CAN’T GET TO COMPLETE FOR EITHER NON SUPPORT ON YOUR COUNTRY OR YOU JUST CAN’T DO ANY OFFER GO HERE:

UNLOCK DOWNLOADS BY AMAZON GIFT CARDS – PSN CODES – SKRILL MONEYBOOKERS AND PERFECT MONEY DONATION

d1

Bitcasino.io

 


Leave a comment

Your email address will not be published. Required fields are marked *

4 thoughts on “Star Wars Episode I The Phantom Menace 4K UltraHD BluRay MULTI X264

Loading Facebook Comments ...