The Shallows 1080p HEVC 10bit VISIONPLUS HDR BT2020-Kadzait24


The Shallows 1080p HEVC 10bit VISIONPLUS HDR 10K NITS ST2084 BT2020-Kadzait24

the shallows hdr download

hdr movie rips download

FIRST HDR REC. 2020 10-bit REAL TRANSFERS RELEASES

ON TEKNO3D YOU GET THE DIRECT LINK DOWNLOAD FROM HIGH SPEED SERVER.

( NO TORRENT )

MADVR HDR Best Setting for this movie:

MadVR HDR to SDR configured in 3500 NITS / Preserve Hue in 0% High Quality and compressing the highlights.

I have recorded a VIDEO TUTORIAL for ” The Shallows ” in DCI-P3 color output and 3500 nits.

USE DCI-P3 on this movie or you will see “wrong colors” due to your display not able to fully reproduce the BT. 2020 gamut.

Please watch it and follow the same settings in MadVR.

 

MadVR Color & Gamma Settings:

– Enable Gamma Processing: Pure Power Curve 1.80

Display Calibration:
– This display has been calibrated
– Disable GPU Gamma Ramps
– DCI-P3 Gamut
– Pure Power Curve: 2.60
And to show how can be tweaked, this one using DCI-P3 , 1800 nits, MadVR Saturation ( this expands the color from the HDR signal ) and Contrast tweak.

As you can see, image changes a lot. And this is because the HDR range is huge on this movie and you can actually saturate colors , change contrast and brightness directly from MadVR and it won’t look over exposed or without contrast even when you remove it like in the following video.

DCI-P3 color output and 1800 nits + MAdVR Saturation +30 and Contrast -20:

If you compare both, one had 3500 nits ( needs TV with high nits/contrast or it will look kind of dull ), the other has 1800 nits and color output is bigger ( i personally like less color ) , but not saturating the pixels at all = due to the expanded range on the HDR video. And being 1800 nits image is brighter and “more alive”.

It all depends on tastes and the settings on MadVR, the possibilities are a lot and it’s about tastes.

If you want to add saturation you can also do this from your TV instead MadVR.
IF YOU DIDN’T SETUP MADVR WITH ABOVE SETTINGS I REALLY RECOMMEND TO WATCH IT AGAIN LIKE THAT.

HOW TO PLAYBACK VISIONPLUS HDR

For Computer Playback

1)Download MPC-HC Latest Release
2)Install MadVR
3)Install Lav Filters
4)Install a suitable codecs pack including HEVC/H.265 Decoder.

Configuration for MPC-HC and MadVR Above.

For TV Playback

Stream is SMPTE 2084, you can playback from any HDR capable TV directly from USB, though 10k nits video could be tricky with commercial HDR TV presets.

 

 

<<
>>

d1

 

STREAM SPECIFICATIONS

General

Format : MPEG-4
Format profile : Base Media
Codec ID : iso4 (iso4/hvc1)
File size : 5.96 GiB
Duration : 1 h 26 min
Overall bit rate mode : Variable
Overall bit rate : 9 888 kb/s
Video

ID : 1
Format : HEVC
Format/Info : High Efficiency Video Coding
Format profile : Main [email protected]@Main
Codec ID : hvc1
Codec ID/Info : High Efficiency Video Coding
Duration : 1 h 26 min
Bit rate : 9 627 kb/s
Maximum bit rate : 56.0 Mb/s
Width : 1 920 pixels
Height : 800 pixels
Display aspect ratio : 2.40:1
Frame rate mode : Constant
Frame rate : 23.976 (24000/1001) FPS
Color space : YUV
Chroma subsampling : 4:2:0 (Type 0)
Bit depth : 10 bits
Bits/(Pixel*Frame) : 0.261
Stream size : 5.80 GiB (97%)
Color range : Limited
Color primaries : BT.2020
Transfer characteristics : SMPTE ST 2084
Matrix coefficients : BT.2020 non-constant
Mastering display color primaries : R: x=0.708000 y=0.292000, G: x=0.170000 y=0.797000, B: x=0.131000 y=0.046000, White point: x=0.312700 y=0.329000
Mastering display luminance : min: 0.0001 cd/m2, max: 800.0000 cd/m2
Maximum Content Light Level : 800 cd/m2
Maximum Frame-Average Light Level : 400 cd/m2

Audio

ID : 2
Format : AAC
Format/Info : Advanced Audio Codec
Format profile : LC
Codec ID : 40
Duration : 1 h 26 min
Source duration : 1 h 26 min
Source_Duration_LastFrame : -11 ms
Bit rate mode : Variable
Bit rate : 256 kb/s
Maximum bit rate : 276 kb/s
Channel(s) : 2 channels
Channel(s)_Original : 6 channels
Channel positions : Front: L C R, Side: L R, LFE
Sampling rate : 48.0 kHz
Frame rate : 46.875 FPS (1024 spf)
Compression mode : Lossy
Stream size : 158 MiB (3%)
Source stream size : 158 MiB (3%)
Title : Audio 1
Default : Yes
Alternate group : 1
Tagged date : UTC 2016-10-26 17:22:10

d1

MAIN DOWNLOAD DIRECT LINK FROM HIGH SPEED SERVER

the shallows hdr download

DOWNLOAD FOR GUESTS NEEDS SPONSOR OFFER COMPLETION. IF YOU CAN’T GET TO COMPLETE FOR EITHER NON SUPPORT ON YOUR COUNTRY OR YOU JUST CAN’T DO ANY OFFER GO HERE:

UNLOCK DOWNLOADS BY AMAZON GIFT CARDS – PSN CODES – SKRILL MONEYBOOKERS AND PERFECT MONEY DONATION

d1

Bitcasino.io

Leave a comment

Your email address will not be published. Required fields are marked *