Captain America Civil War HDR 1080p HEVC 10bit BT2020 DTS-HD MA-VISIONPLUSHDR 2

captain america civil war hdr rip torrent 4k 2160p download

Captain.America.Civil.War.HDR.1080p.HEVC.10bit.BT.2020.DUAL.ENG.DTS-HD.MA.7.1_SPA.AC3.5.1-VISIONPLUSHDR

hdr movie rips download

FIRST HDR REC. 2020 COMPLIANT 10-bit REAL TRANSFER RELEASES

English DTS-HD MA Track and Spanish Latino AC3 5.1 on every VISIONPLUS HDR Release

CAPTAIN AMERICA CIVIL WAR VISIONPLUSHDR-1000 MADVR IN DIFFERENT NITS OUTPUT:

IMAGE OFF YOUTUBE QUALITY IN 5000 and 2000 NITS MADVR OUTPUT:

ON TEKNO3D.com YOU GET THE DIRECT LINK DOWNLOAD FROM HIGH SPEED SERVER.

( NO TORRENT )

film-divider-transparent

 

*** VISIONPLUS HDR-1000 Releases are graded at more NITS than commercial Dolby Vision. This allows to higher range and gamut expansion. When you choose higher nits output on MadVR you get to see better details on highlights and black zones, as well much higher gamut expansion that allows to use MadVR Saturation or TV Saturation much more than commercial HDR releases.***

 

MADVR HDR BEST SETTING FOR THIS MOVIE * VISIONPLUSHDR-1000 VIDEO*

 

Configured in 2500 NITS and UP / Preserve Hue in 50% High Quality when NITS from 2500 to 4000. Preserve HUE 25% only when using 5000 NITS.
Compressing the highlights when lower NITS than 3700. Restore Details in compressed highlights.

FOR THE MAXIMUM HDR OUTPUT CHOOSE 5000 NITS and Preserve HUE 0%. THIS MAY NEED HDR TV PRESET TO EXPAND LEVELS.

Display Calibration: BT.2020 Gamut and Pure Power Curve 1.80

Color & Gamma: SATURATION: +35 to +75 and BRIGHTNESS +80 to +100

Image Upscaling/Chroma:

Bilinear for Maximum Performance. For Good 4K Upscaling Choose Bicubic150 for both.

FOR HDR TV’s Select “Passthrough HDR content to the TV”. And choose your HDR TV Preset by the using of MadVR from 2000 to 5000 NITS output.

 film-divider-transparent

 HOW TO PLAYBACK VISIONPLUS HDR

For Computer Playback

1)Download MPC-HC Latest Release
2)Install MadVR
3)Install Lav Filters
4)Install a suitable codecs pack including HEVC/H.265 Decoder.

Configuration for MPC-HC and MadVR Above.

For TV Playback

Stream is SMPTE 2084, you can playback from any HDR capable TV directly from USB, though 10k nits video could be tricky with commercial HDR TV presets.

earn free bitcoins daily

 

 

film-divider-transparent

 

MEDIA SPECS

Video
ID : 1
Format : HEVC
Format/Info : High Efficiency Video Coding
Format profile : Main [email protected]@Main
Codec ID : V_MPEGH/ISO/HEVC
Duration : 2 h 27 min
Bit rate : 13.5 Mb/s
Width : 1 920 pixels
Height : 804 pixels
Display aspect ratio : 2.40:1
Frame rate mode : Constant
Frame rate : 23.976 (24000/1001) FPS
Color space : YUV
Chroma subsampling : 4:2:0 (Type 0)
Bit depth : 10 bits
Bits/(Pixel*Frame) : 0.364
Stream size : 13.9 GiB (71%)
Title : Captain.America.Civil.War.HDR.1080p.HEVC.10bit.BT.2020.DUAL.ENG.DTS-HD.MA.7.1_SPA.AC3.5.1-VISIONPLUSHDR
Writing library : x265 1.9+3-548a45bbf223:[Windows][GCC 5.2.0][64 bit] 10bit
Encoding settings : wpp / ctu=32 / min-cu-size=16 / max-tu-size=32 / tu-intra-depth=1 / tu-inter-depth=1 / me=0 / subme=0 / merange=57 / no-rect / no-amp / max-merge=2 / temporal-mvp / early-skip / rdpenalty=0 / no-tskip / no-tskip-fast / strong-intra-smoothing / no-lossless / no-cu-lossless / no-constrained-intra / fast-intra / open-gop / no-temporal-layers / interlace=0 / keyint=250 / min-keyint=23 / scenecut=0 / rc-lookahead=5 / lookahead-slices=5 / bframes=3 / bframe-bias=0 / b-adapt=0 / ref=1 / limit-refs=0 / no-limit-modes / no-weightp / no-weightb / aq-mode=1 / qg-size=32 / aq-strength=0.00 / cbqpoffs=0 / crqpoffs=0 / rd=2 / psy-rd=2.00 / rdoq-level=0 / psy-rdoq=0.00 / no-rd-refine / no-signhide / deblock / no-sao / no-sao-non-deblock / b-pyramid / cutree / no-intra-refresh / rc=abr / bitrate=13500 / qcomp=0.60 / qpmin=0 / qpmax=51 / qpstep=4 / ipratio=1.40 / pbratio=1.30
Default : Yes
Forced : No
Color range : Limited
Color primaries : BT.2020
Transfer characteristics : SMPTE ST 2084
Matrix coefficients : BT.2020 non-constant
Mastering display color primaries : R: x=0.708000 y=0.292000, G: x=0.170000 y=0.797000, B: x=0.131000 y=0.046000, White point: x=0.312700 y=0.329000
Mastering display luminance : min: 0.0001 cd/m2, max: 800.0000 cd/m2
Maximum Content Light Level : 800 cd/m2
Maximum Frame-Average Light Level : 400 cd/m2

Audio #1
ID : 2
Format : DTS
Format/Info : Digital Theater Systems
Format profile : MA / Core
Mode : 16
Format settings, Endianness : Big
Codec ID : A_DTS
Duration : 2 h 27 min
Bit rate mode : Variable / Constant
Bit rate : 4 699 kb/s / 1 509 kb/s
Channel(s) : 8 channels / 6 channels
Channel positions : Front: L C R, Side: L R, Back: L R, LFE / Front: L C R, Side: L R, LFE
Sampling rate : 48.0 kHz
Frame rate : 93.750 FPS (512 spf)
Bit depth : 24 bits
Compression mode : Lossless / Lossy
Stream size : 4.85 GiB (25%)
Title : Captain.America.Civil.War.HDR.English.DTS-HD.MA.7.1-VISIONPLUSHDR
Language : English
Default : Yes
Forced : No

Audio #2
ID : 3
Format : AC-3
Format/Info : Audio Coding 3
Mode extension : CM (complete main)
Format settings, Endianness : Big
Codec ID : A_AC3
Duration : 2 h 27 min
Bit rate mode : Constant
Bit rate : 640 kb/s
Channel(s) : 6 channels
Channel positions : Front: L C R, Side: L R, LFE
Sampling rate : 48.0 kHz
Frame rate : 31.250 FPS (1536 spf)
Compression mode : Lossy
Stream size : 676 MiB (3%)
Title : 5.1 Dolby Digital (Latino) @640Kbps BLU-RAY
Language : Spanish
Default : No
Forced : No

<<
>>

d1

If you want us to keep on releasing NATIVE HDR, Please Support VISIONPLUS HDR Movie Releases by Donation.

 

As you are already aware VISIONPLUS HDR is the only way you can get to download full movies in High Dynamic Range and Fully Compliant REC. 2020 HEVC 10-bit Video.

The VISIONPLUS HDR releases also provides high quality audio in lossless DTS-HD Master Audio and the Spanish Latino AC-3 5.1 to cover more people tastes and language support.

Our work is only possible if you support it. Transferring movies to High Dynamic Range is not an easy task and it takes several time and effort to make it happen.

With your support VISIONPLUS is going to last forever. You are going to get quality movies transferred to HDR, even the non-released yet on Blu-Ray.

Tekno3D is going to offer soon movie requests and a VIP membership.

You can support VISIONPLUS HDR instantly by completing simple sponsor offers:

 

You can help by only completing our sponsor offers on the following wall, you can even get your friends or family complete offers and support it.

The offers only needs E-Mail Submits, Mobile PIN Confirmations. Must be done from unique IP and with Real Valid Information.

It only takes 5 minutes and we will be able to keep on releasing a lot of movies in VISIONPLUS NATIVE HDR.

 

 

FOR BITCOIN, GIFT CARDS, SKRILL AND PERFECT MONEY DONATION GO HERE:

hdr torrent movie downloads

THANKS FOR ANYBODY SUPPORTING VISIONPLUS HDR MOVIE RELEASES. YOUR SUPPORT MAKES IT POSSIBLE.

thanks for your support visionplus hdr
d1

MAIN DOWNLOAD DIRECT LINK FROM HIGH SPEED SERVER

ONLINE AVAILABLE FOR DOWNLOAD

*RENAME ZIP EXTENSION TO MP4*

captain america civil war hdr download

DOWNLOAD DIRECTLY WITHOUT HAVING TO UNLOCK ONLY FOR VIP MEMBERS:

vip downloads

DOWNLOAD FOR GUESTS NEEDS SPONSOR OFFER COMPLETION. IF YOU CAN’T GET TO COMPLETE FOR EITHER NON SUPPORT ON YOUR COUNTRY OR YOU JUST CAN’T DO ANY OFFER GO HERE:

UNLOCK DOWNLOADS BY AMAZON GIFT CARDS – PSN CODES – SKRILL MONEYBOOKERS AND PERFECT MONEY DONATION

d1

Bitcasino.io


Leave a comment

Your email address will not be published. Required fields are marked *

2 thoughts on “Captain America Civil War HDR 1080p HEVC 10bit BT2020 DTS-HD MA-VISIONPLUSHDR

  • peter nesbo

    Amazing work done on this movie. I kept finding myself not paying attention to the film itself, but admiring the colour range instead.

    • VISIONPLUS HDR Post author

      Thanks for the feedback! We are going to also update images and video tutorial to use the Pure Power Gamma Curve as we already did for other movies. This is only for MadVR playback.