Warcraft 2016 HDR 1080p HEVC 10bit BT2020 TrueHD Atmos-VISIONPLUSHDR


Warcraft.HDR.1080p.HEVC.10bit.BT2020.Eng.TrueHD.Atmos.Spa.AC-3.5.1-VISIONPLUSHDR

hdr movie rips download
English DTS-HD MA Track and Spanish Latino AC3 5.1 on every VISIONPLUS HDR Release

ON TEKNO3D.com YOU GET THE DIRECT LINK DOWNLOAD FROM HIGH SPEED SERVER.

( NO TORRENT )

FIRST HDR REC. 2020 COMPLIANT 10-bit REAL TRANSFER RELEASES

film-divider-transparent

WE JUST FOUND THE CORRECT MADVR SETTINGS TO USE THE PURE POWER GAMMA CURVE HDR FOR OUR MOVIE TRANSFERS.

THIS IS A VIDEO TUTORIAL ON HOW IT MUST BE CONFIGURED FOR THE MOVIE WARCRAFT VISIONPLUS HDR

YOU CAN SEE HOW GAMUT AND RANGE NOW SHOWS THE CORRECT OUTPUT

IMAGES IN JPEG [ IMAGES WITH THE PURE POWER GAMMA CURVE SETTINGS ]

MADVR HDR BEST SETTING FOR THIS MOVIE:

MadVR HDR to SDR configured in 400 to 1500 NITS *NITS DEPENDS ON YOUR TV PANEL OR IF YOU WANT STRONGER HIGHLIGHTS OR HIGHER HDR DETAILS* /

Preserve Hue in 50% High Quality and compressing the highlights. You can use 25% or 0% when rising the NITS more than 1000. Restore details in compressed highlights.

MadVR Color & Gamma Settings:

Pure Power Curve: 1.80 to 2.20 / Saturation +5 to +10 / HUE +1 ( HUE is optional )

Pure Power Curve 1.80 to 2.20 is depending on your TV/Panel. And if you choose HDR TV Presets/Dynamic/Vivo/Vivid. Lower Power Curve shows better blacks and details when TV presets are used.

Saturation 3 to 10 is meant to expand gamut.

Display Calibration:

Tick This display has been calibrated
Tick Disable GPU Gamma Ramps
BT. 2020 Gamut / Pure Power Gamma Curve 2.60

Pure Power Curve 2.60 expands the gamma curve. When using TV to expand HDR content you should always select 2.60 Pure Power Curve, as lower would result in crushed output.

Image Upscaling/Chroma:

Bilinear for Maximum Performance. For Good 4K Upscaling Choose Bicubic150 for both. * DO NOT CHOOSE DXVA2 SINCE IT DOESN’T ALLOWS COLOR & GAMMA MADVR TWEAKS *

FOR HDR TV’s Select “Passthrough HDR content to the TV”. And choose your HDR TV Preset.

 film-divider-transparent

 HOW TO PLAYBACK VISIONPLUS HDR

For Computer Playback

1)Download MPC-HC Latest Release
2)Install MadVR
3)Install Lav Filters
4)Install a suitable codecs pack including HEVC/H.265 Decoder.

Configuration for MPC-HC and MadVR Above.

For TV Playback

Stream is SMPTE 2084, you can playback from any HDR capable TV directly from USB, though 10k nits video could be tricky with commercial HDR TV presets.

film-divider-transparent

MEDIA SPECS

Video
ID : 1
Format : HEVC
Format/Info : High Efficiency Video Coding
Format profile : Main [email protected]@Main
Codec ID : V_MPEGH/ISO/HEVC
Duration : 2 h 3 min
Bit rate : 16.9 Mb/s
Width : 1 920 pixels
Height : 790 pixels
Display aspect ratio : 2.40:1
Frame rate mode : Constant
Frame rate : 23.976 (24000/1001) FPS
Color space : YUV
Chroma subsampling : 4:2:0 (Type 0)
Bit depth : 10 bits
Bits/(Pixel*Frame) : 0.464
Stream size : 14.5 GiB (75%)
Title : Warcraft.2016.HDR.1080p.HEVC.10bit.BT2020.TrueHD.Atmos-VISIONPLUSHDR
Writing library : x265 1.9+3-548a45bbf223:[Windows][ICC 1600][64 bit] 10bit
Encoding settings : wpp / ctu=32 / min-cu-size=16 / max-tu-size=32 / tu-intra-depth=1 / tu-inter-depth=1 / me=0 / subme=0 / merange=57 / no-rect / no-amp / max-merge=2 / temporal-mvp / early-skip / rdpenalty=0 / no-tskip / no-tskip-fast / strong-intra-smoothing / no-lossless / no-cu-lossless / no-constrained-intra / fast-intra / open-gop / no-temporal-layers / interlace=0 / keyint=250 / min-keyint=23 / scenecut=0 / rc-lookahead=5 / lookahead-slices=5 / bframes=3 / bframe-bias=0 / b-adapt=0 / ref=1 / limit-refs=0 / no-limit-modes / no-weightp / no-weightb / aq-mode=1 / qg-size=32 / aq-strength=0.00 / cbqpoffs=0 / crqpoffs=0 / rd=2 / psy-rd=2.00 / rdoq-level=0 / psy-rdoq=0.00 / no-rd-refine / no-signhide / deblock / no-sao / no-sao-non-deblock / b-pyramid / cutree / no-intra-refresh / rc=abr / bitrate=17000 / qcomp=0.60 / qpmin=0 / qpmax=51 / qpstep=4 / ipratio=1.40 / pbratio=1.30
Default : Yes
Forced : No
Color range : Limited
Color primaries : BT.2020
Transfer characteristics : SMPTE ST 2084
Matrix coefficients : BT.2020 non-constant
Mastering display color primaries : R: x=0.708000 y=0.292000, G: x=0.170000 y=0.797000, B: x=0.131000 y=0.046000, White point: x=0.312700 y=0.329000
Mastering display luminance : min: 0.0001 cd/m2, max: 800.0000 cd/m2
Maximum Content Light Level : 800 cd/m2
Maximum Frame-Average Light Level : 400 cd/m2

Audio #1
ID : 2
Format : Atmos / TrueHD
Codec ID : A_TRUEHD
Duration : 2 h 3 min
Bit rate mode : Variable
Bit rate : 4 835 kb/s
Maximum bit rate : 7 893 kb/s
Channel(s) : Object Based / 8 channels
Channel positions : Object Based / Front: L C R, Side: L R, Back: L R, LFE
Sampling rate : / 48.0 kHz
Frame rate : 1 200.000 FPS (40 spf)
Compression mode : Lossless
Delay relative to video : 1 ms
Stream size : 4.16 GiB (21%)
Title : English TrueHD Atmos 7.1
Language : English
Default : Yes
Forced : Yes

Audio #2
ID : 3
Format : AC-3
Format/Info : Audio Coding 3
Mode extension : CM (complete main)
Format settings, Endianness : Big
Codec ID : A_AC3
Duration : 2 h 3 min
Bit rate mode : Constant
Bit rate : 640 kb/s
Channel(s) : 6 channels
Channel positions : Front: L C R, Side: L R, LFE
Sampling rate : 48.0 kHz
Frame rate : 31.250 FPS (1536 spf)
Compression mode : Lossy
Delay relative to video : 24 ms
Stream size : 564 MiB (3%)
Title : Espanol Latino AC-3 5.1
Default : No
Forced : No

<<
>>

d1

If you want us to keep on releasing NATIVE HDR, Please Support VISIONPLUS HDR Movie Releases by Donation.

As you are already aware VISIONPLUS HDR is the only way you can get to download full movies in High Dynamic Range and Fully Compliant REC. 2020 HEVC 10-bit Video.

The VISIONPLUS HDR releases also provides high quality audio in lossless DTS-HD Master Audio and the Spanish Latino AC-3 5.1 to cover more people tastes and language support.

Our work is only possible if you support it. Transferring movies to High Dynamic Range is not an easy task and it takes several time and effort to make it happen.

With your support VISIONPLUS is going to last forever. You are going to get quality movies transferred to HDR, even the non-released yet on Blu-Ray.

Tekno3D is going to offer soon movie requests and a VIP membership.

You can support VISIONPLUS HDR instantly by completing simple sponsor offers:

You can help by only completing our sponsor offers on the following wall, you can even get your friends or family complete offers and support it.

The offers only needs E-Mail Submits, Mobile PIN Confirmations. Must be done from unique IP and with Real Valid Information.

IF YOU CAN USE THE MOBILE OFERS. THOSE ARE FAST TO COMPLETE AS ONLY REQUIRES PIN CONFIRMATION AND WE EARN BETTER TO BE ABLE TO DO MORE MOVIES IN HDR.

It only takes 5 minutes and we will be able to keep on releasing a lot of movies in VISIONPLUS NATIVE HDR.

FOR BITCOIN, GIFT CARDS, SKRILL AND PERFECT MONEY DONATION GO HERE:

hdr torrent movie downloads

THANKS FOR ANYBODY SUPPORTING VISIONPLUS HDR MOVIE RELEASES. YOUR SUPPORT MAKES IT POSSIBLE.

thanks for your support visionplus hdr
d1

MAIN DOWNLOAD DIRECT LINK FROM HIGH SPEED SERVER

******************* ONLINE AVAILABLE FOR DOWNLOAD *******************

BITCOIN DONATION ON LINK UNLOCK OPTIONS IS AVAILABLE NOW. ONLY $1.3 IN BTC. CLICK ON DOWNLOAD BUTTON TO PROCEED.

*RENAME ZIP EXTENSION TO MP4*

warcraft hdr download

DOWNLOAD DIRECTLY WITHOUT HAVING TO UNLOCK ONLY FOR VIP MEMBERS:

 

vip downloads

DOWNLOAD FOR GUESTS NEEDS SPONSOR OFFER COMPLETION. IF YOU CAN’T GET TO COMPLETE FOR EITHER NON SUPPORT ON YOUR COUNTRY OR YOU JUST CAN’T DO ANY OFFER GO HERE:

UNLOCK DOWNLOADS BY AMAZON GIFT CARDS – PSN CODES – SKRILL MONEYBOOKERS AND PERFECT MONEY DONATION

d1

Bitcasino.io

Leave a comment

Your email address will not be published. Required fields are marked *