Avatar HDR NEWGRADING 1080p HEVC 10bit BT2020 DTS-HD MA-VISIONPLUSHDR 2


Avatar.Collectors.Edition.2009.NEWGRADING.1080p.HEVC.10bit.BT2020.DTS-HD.MA-VISIONPLUSHDR

“NEWGRADING” VERSION THAT FIXES AVATAR HDR EXPERIENCE:

IMPROVED GAMUT

CORRECT HUE

DEEPER BLACKS

BETTER HIGHLIGHTS

VISIONPLUSHDR-1000 HAS BEEN DEVELOPED * SOME MOVIES WE HAVE RELEASED ALREADY HAVE IT SUCH AS AVATAR NEWGRADING *

NOW EVERY COMING HDR TRANSFERS ARE GOING TO USE IT.

VISIONPLUSHDR-1000 BRINGS OUT DYNAMIC HIGHLIGHTS AND GAMUT.

WATCH IT ON YOUTUBE:

AVATAR NEWGRADING VISIONPLUSHDR-1000 MADVR 5000 NITS OUTPUT:

AVATAR NEWGRADING VISIONPLUSHDR-1000 MADVR 2000 NITS OUTPUT:

IMAGE OFF YOUTUBE QUALITY IN 5000 and 2000 NITS MADVR OUTPUT:

AVAILABLE ON TEKNO3D DIRECT DOWNLOAD

[ NO TORRENTS ]

FIRST HDR REC. 2020 COMPLIANT 10-bit HEVC REAL TRANSFER RELEASES

This release version improves HDR experience


Audio Tracks:

– English DTS-HD Core 1536kbps
– English AC-3 5.1 448kbps
– Spanish Latino AC-3 5.1 448kbps

Subtitles:

– English Na’Vi Parts
– English
– Spanish Latino
– French
– Italian
– Hungarian
– Czech
– Icelandic
– Polish
– Arabic

IMPORTANT: For subtitle reproduction with MPC-HC you MUST install XySubFilter Beta3

Download it from GITHUB ( look up for it on google.

Then just right click on “Install_XySubFilter.bat” Run As Administrator.

Then just leave Subtitle Playback as the default internal ( basically don’t touch anything else )

Na’Vi English Subtitle automatically plays with the movie as default subtitle track

 

MADVR HDR BEST SETTING FOR THIS MOVIE:

MadVR HDR to SDR configured in 2000 to 5000 NITS *NITS DEPENDS ON YOUR TV PANEL OR IF YOU WANT STRONGER HIGHLIGHTS OR HIGHER HDR DETAILS* /

Preserve Hue in 0% when using more than 4000 NITS use 50% when using less. High Quality and compressing the highlights. Restore details in compressed highlights.

MadVR Color & Gamma Settings:

Saturation +5 to +40

Saturation 5 to 40 is meant to expand gamut.

Display Calibration:

Tick This display has been calibrated
Tick Disable GPU Gamma Ramps
BT. 2020 Gamut / Pure Power Gamma Curve 1.80 to 2.00

Pure Power Curve 1.80 to 2.00 is meant when you choose HDR TV Presets/Dynamic/Vivo/Vivid. When using TV to expand HDR content you should always select 2.00 Pure Power Curve, as lower would result in crushed output.

REMEMBER: You can play with NITS up and down. Higher NITS needs your display to be able to output such nits you select, otherwise you get weaker output. Though higher nits output from MadVR shows more HDR Details ( such as clouds, sky, sun over the clouds, better reflections and such ). Some people may find it better than using low NITS for strong output.

Image Upscaling/Chroma:

Bilinear for Maximum Performance. For Good 4K Upscaling Choose Bicubic150 for both.

FOR HDR TV’s Select “Passthrough HDR content to the TV”. And choose your HDR TV Preset.

 film-divider-transparent

 HOW TO PLAYBACK VISIONPLUS HDR

For Computer Playback

1)Download MPC-HC Latest Release
2)Install MadVR
3)Install Lav Filters
4)Install a suitable codecs pack including HEVC/H.265 Decoder.

Configuration for MPC-HC and MadVR Above.

For TV Playback

Stream is SMPTE 2084, you can playback from any HDR capable TV directly from USB, though 10k nits video could be tricky with commercial HDR TV presets.

film-divider-transparent

MEDIA SPECS

Video

ID : 1
Format : HEVC
Format/Info : High Efficiency Video Coding
Format profile : Main [email protected]@Main
Codec ID : V_MPEGH/ISO/HEVC
Duration : 2 h 58 min
Bit rate : 17.0 Mb/s
Width : 1 920 pixels
Height : 1 080 pixels
Display aspect ratio : 16:9
Frame rate mode : Constant
Frame rate : 23.976 (24000/1001) FPS
Color space : YUV
Chroma subsampling : 4:2:0 (Type 0)
Bit depth : 10 bits
Bits/(Pixel*Frame) : 0.342
Stream size : 21.2 GiB (87%)
Writing library : x265 1.9+3-548a45bbf223:[Windows][ICC 1600][64 bit] 10bit
Encoding settings : wpp / ctu=32 / min-cu-size=16 / max-tu-size=32 / tu-intra-depth=1 / tu-inter-depth=1 / me=0 / subme=0 / merange=57 / no-rect / no-amp / max-merge=2 / temporal-mvp / early-skip / rdpenalty=0 / no-tskip / no-tskip-fast / strong-intra-smoothing / no-lossless / no-cu-lossless / no-constrained-intra / fast-intra / open-gop / no-temporal-layers / interlace=0 / keyint=250 / min-keyint=23 / scenecut=0 / rc-lookahead=5 / lookahead-slices=6 / bframes=3 / bframe-bias=0 / b-adapt=0 / ref=1 / limit-refs=0 / no-limit-modes / no-weightp / no-weightb / aq-mode=1 / qg-size=32 / aq-strength=0.00 / cbqpoffs=0 / crqpoffs=0 / rd=2 / psy-rd=2.00 / rdoq-level=0 / psy-rdoq=0.00 / no-rd-refine / no-signhide / deblock / no-sao / no-sao-non-deblock / b-pyramid / cutree / no-intra-refresh / rc=abr / bitrate=17000 / qcomp=0.60 / qpmin=0 / qpmax=51 / qpstep=4 / ipratio=1.40 / pbratio=1.30
Default : Yes
Forced : No
Color range : Limited
Color primaries : BT.2020
Transfer characteristics : SMPTE ST 2084
Matrix coefficients : BT.2020 non-constant
Mastering display color primaries : R: x=0.708000 y=0.292000, G: x=0.170000 y=0.797000, B: x=0.131000 y=0.046000, White point: x=0.312700 y=0.329000
Mastering display luminance : min: 0.0001 cd/m2, max: 800.0000 cd/m2
Maximum Content Light Level : 800 cd/m2
Maximum Frame-Average Light Level : 400 cd/m2

Audio #1

ID : 3
Format : AC-3
Format/Info : Audio Coding 3
Mode extension : CM (complete main)
Format settings, Endianness : Big
Codec ID : A_AC3
Duration : 2 h 58 min
Bit rate mode : Constant
Bit rate : 448 kb/s
Channel(s) : 6 channels
Channel positions : Front: L C R, Side: L R, LFE
Sampling rate : 48.0 kHz
Frame rate : 31.250 FPS (1536 spf)
Compression mode : Lossy
Stream size : 571 MiB (2%)
Title : English AC-3 5.1
Language : English
Default : Yes
Forced : No

Audio #2

ID : 4
Format : AC-3
Format/Info : Audio Coding 3
Mode extension : CM (complete main)
Format settings, Endianness : Big
Codec ID : A_AC3
Duration : 2 h 58 min
Bit rate mode : Constant
Bit rate : 448 kb/s
Channel(s) : 6 channels
Channel positions : Front: L C R, Side: L R, LFE
Sampling rate : 48.0 kHz
Frame rate : 31.250 FPS (1536 spf)
Compression mode : Lossy
Delay relative to video : 24 ms
Stream size : 571 MiB (2%)
Title : Español Latino AC-3 5.1
Language : Spanish
Default : No
Forced : No

Audio #3

ID : 5
Format : DTS
Format/Info : Digital Theater Systems
Mode : 16
Format settings, Endianness : Big
Codec ID : A_DTS
Duration : 2 h 58 min
Bit rate mode : Constant
Bit rate : 1 509 kb/s
Channel(s) : 6 channels
Channel positions : Front: L C R, Side: L R, LFE
Sampling rate : 48.0 kHz
Frame rate : 93.750 FPS (512 spf)
Bit depth : 24 bits
Compression mode : Lossy
Stream size : 1.88 GiB (8%)
Title : English DTS-HD Master Audio
Default : No
Forced : No

 

<<
>>

d1

If you want us to keep on releasing NATIVE HDR, Please Support VISIONPLUS HDR Movie Releases by Donation.

As you are already aware VISIONPLUS HDR is the only way you can get to download full movies in High Dynamic Range and Fully Compliant REC. 2020 HEVC 10-bit Video.

The VISIONPLUS HDR releases also provides high quality audio in lossless DTS-HD Master Audio and the Spanish Latino AC-3 5.1 to cover more people tastes and language support.

Our work is only possible if you support it. Transferring movies to High Dynamic Range is not an easy task and it takes several time and effort to make it happen.

With your support VISIONPLUS is going to last forever. You are going to get quality movies transferred to HDR, even the non-released yet on Blu-Ray.

Tekno3D is going to offer soon movie requests and a VIP membership.

You can support VISIONPLUS HDR instantly by completing simple sponsor offers:

You can help by only completing our sponsor offers on the following wall, you can even get your friends or family complete offers and support it.

The offers only needs E-Mail Submits, Mobile PIN Confirmations. Must be done from unique IP and with Real Valid Information.

IF YOU CAN USE THE MOBILE OFERS. THOSE ARE FAST TO COMPLETE AS ONLY REQUIRES PIN CONFIRMATION AND WE EARN BETTER TO BE ABLE TO DO MORE MOVIES IN HDR.

It only takes 5 minutes and we will be able to keep on releasing a lot of movies in VISIONPLUS NATIVE HDR.

FOR BITCOIN, GIFT CARDS, SKRILL AND PERFECT MONEY DONATION GO HERE:

hdr torrent movie downloads

THANKS FOR ANYBODY SUPPORTING VISIONPLUS HDR MOVIE RELEASES. YOUR SUPPORT MAKES IT POSSIBLE.

thanks for your support visionplus hdr
d1

MAIN DOWNLOAD DIRECT LINK FROM HIGH SPEED SERVER

******************* ONLINE AVAILABLE FOR DOWNLOAD *******************

BITCOIN DONATION ON LINK UNLOCK OPTIONS IS AVAILABLE NOW. ONLY $1.3 IN BTC. CLICK ON DOWNLOAD BUTTON TO PROCEED.

*RENAME ZIP EXTENSION TO MP4*

warcraft hdr download

DOWNLOAD DIRECTLY WITHOUT HAVING TO UNLOCK ONLY FOR VIP MEMBERS:

vip downloads

DOWNLOAD FOR GUESTS NEEDS SPONSOR OFFER COMPLETION. IF YOU CAN’T GET TO COMPLETE FOR EITHER NON SUPPORT ON YOUR COUNTRY OR YOU JUST CAN’T DO ANY OFFER GO HERE:

UNLOCK DOWNLOADS BY AMAZON GIFT CARDS – PSN CODES – SKRILL MONEYBOOKERS AND PERFECT MONEY DONATION

d1

Bitcasino.io

 

 


Leave a comment

Your email address will not be published. Required fields are marked *

2 thoughts on “Avatar HDR NEWGRADING 1080p HEVC 10bit BT2020 DTS-HD MA-VISIONPLUSHDR

    • VISIONPLUS HDR Post author

      Hello, there’s other options as well, the surveys/mobile is only one you can use to download movies.

      Currently we have to set a restriction to download because we have spent a lot of money on server/storage/cpu’s to be able to transfer movies faster.

      If we get more vip members we can also release 4K HDR, since that needs a lot more CPU’s.

      If this would be non cost to do it we wouldn’t ask for unlocking or donations when registering, but it does need funding or it won’t last.

      You can do bitcoin, skrill, PSN, Amazon, Perfect Money instead Sponsor surveys/mobile. We are sure that covers almost anybody in the world.